Share | 
 

 Without You

View previous topic View next topic Go down 
AuthorMessage
d4rk
Nouveau
avatar
Nouveau

Messages : 17
Date d'inscription : 2013-08-04

PostSubject: Without You   Tue 29 Jul - 23:29



Direct Download Link
http://tinyurl.com/lhnkxru

Anime: BLEACH
Music:
      Artist-C2C
      Song-F.U.Y.A.


Media Information:
Title
Without You
Video--
Format    : MPEG-4 / AVC
Duration  : 1mn 43s
Bit rate    : 18.6 Mbps
Display aspect ratio  : 16:9
Frame rate  : 23.976 fps
Bit depth  : 8 bits
Stream size  : 231 MiB (99%)
Audio--
Format   : AAC
Bit rate   : 192 Kbps
Channel(s)  :  channel0
Channel(s)_Original   : 2 channels
Channel positions  : Front: L R
Sampling rate    : 48.0 KHz
Compression mode   : Lossy
Stream size  : 2.38 MiB (1%)


AMV description
Time taken: 2 weeks
Software: Sony Vegas Pro 10
Note:
Tried some new things overall an experimental video testing this and that like removing/cleaning some stuffs. The mask bug at 1:26 "I forgot" to feather it... sorry, but I won't RE-Render again!


P.S.
It would be nice for someone to make me an hot poster <3 !
Back to top Go down
View user profile
 

Without You

View previous topic View next topic Back to top 
Page 1 of 1

Permissions in this forum:You cannot reply to topics in this forum
Soul's Team Forum :: AnimeMusicVideos-